Torrent Search | Torrent Meta Search | Widgets

Marvels Agents of S H I E L D S04E09 HDTV x264 LOL ettv

       
›
›
254.88 Mb
found 10 days ago
▲ seeders: 1859 ▼ leechers:235
your vote:
real:
fake:
download torrent

Marvels Agents of S H I E L D S04E09 HDTV x264 LOL ettv torrent

Information about the torrent Marvels Agents of S H I E L D S04E09 HDTV x264 LOL ettv. A torrent file stores metadata that can be used from a BitTorrent client.

If you want to download the tv torrent Marvels Agents of S H I E L D S04E09 HDTV x264 LOL ettv you will need a torrent client.

Torrent Metasearch.

Torrent verified by thepiratebay.se.

tracker
seeders
leechers
↓ torrent client compatible list

↑ hide torrent client compatible list

comments/reviews
anonymous 14 Jan 2017, 12:01:09
Marvels.Agents.of.S.H.I.E.L.D.S04E0
anonymous 11 Jan 2017, 08:01:43
Make Money Online EveryDay.Payments are made via Paypal, Bitcoin and Visa Cards InstantlyJoin Here:- bit.ly/2iEpscp
140
torrent contents

Marvels.Agents.of.S.H.I.E.L.D.S04E09.HDTV.x264-LOL[ettv] torrent

Marvels.Agents.of.S.H.I.E.L.D.S04E09.HDTV.x264-LOL[ettv]
Torrent-Downloaded-from-ExtraTorrent.cc.txt169 bytes torrent search
marvels.agents.of.s.h.i.e.l.d.409.hdtv-lol[ettv].mkv254.88 Mb torrent search

Sample info:
Duration: 00:42:24.76, start: 0.000000, bitrate: 840 kb/s
Stream #0:0: Video: h264 (High), yuv420p(tv, bt709/unknown/unknown), 720x404 [SAR 1:1 DAR 180:101], 23.98 fps, 23.98 tbr, 1k tbn, 47.95 tbc (default)
BPS	: 714202
BPS-eng	: 714202
DURATION	: 00:42:24.626000000
DURATION-eng	: 00:42:24.626000000
NUMBER_OF_FRAMES: 61010
NUMBER_OF_FRAMES-eng: 61010
NUMBER_OF_BYTES : 227172338
NUMBER_OF_BYTES-eng: 227172338
_STATISTICS_WRITING_APP: mkvmerge v8.4.0 ('A better way to fly') 64bit
_STATISTICS_WRITING_APP-eng: mkvmerge v8.4.0 ('A better way to fly') 64bit
_STATISTICS_WRITING_DATE_UTC: 2017-01-11 01:37:11
_STATISTICS_WRITING_DATE_UTC-eng: 2017-01-11 01:37:11
_STATISTICS_TAGS: BPS DURATION NUMBER_OF_FRAMES NUMBER_OF_BYTES
_STATISTICS_TAGS-eng: BPS DURATION NUMBER_OF_FRAMES NUMBER_OF_BYTES
Stream #0:1: Audio: aac (LC), 48000 Hz, stereo, fltp (default)
BPS	: 123784
BPS-eng	: 123784
DURATION	: 00:42:24.747000000
DURATION-eng	: 00:42:24.747000000
NUMBER_OF_FRAMES: 119285
NUMBER_OF_FRAMES-eng: 119285
NUMBER_OF_BYTES : 39374905
NUMBER_OF_BYTES-eng: 39374905
_STATISTICS_WRITING_APP: mkvmerge v8.4.0 ('A better way to fly') 64bit
_STATISTICS_WRITING_APP-eng: mkvmerge v8.4.0 ('A better way to fly') 64bit
_STATISTICS_WRITING_DATE_UTC: 2017-01-11 01:37:11
_STATISTICS_WRITING_DATE_UTC-eng: 2017-01-11 01:37:11
_STATISTICS_TAGS: BPS DURATION NUMBER_OF_FRAMES NUMBER_OF_BYTES
_STATISTICS_TAGS-eng: BPS DURATION NUMBER_OF_FRAMES NUMBER_OF_BYTES
screenshots
Images are auto generated please report any inapropriate images
 

related search cloud

 marvels  hdtv  ettv  agents  extratorrent  torrent  downloaded