Torrent Search | Torrent Meta Search | Widgets

Sold (2016) HDRip XviD AC3 EVO

       
›
›
1.37 Gb
found 11 days ago
▲ seeders: 442 ▼ leechers:134
your vote:
real:
fake:
download torrent

Sold (2016) HDRip XviD AC3 EVO torrent

Information about the torrent Sold (2016) HDRip XviD AC3 EVO. Seeders, leechers and torrent status is updated everyday.

If you want to download the hdrip torrent Sold (2016) HDRip XviD AC3 EVO you will need a torrent client.

Torrent Metasearch.

Torrent verified by thepiratebay.se.

tracker
seeders
leechers
↓ torrent client compatible list

↑ hide torrent client compatible list

comments/reviews
anonymous 11 Jan 2017, 03:01:49
Free Porn Live show [1day Free] "ⓗⓣⓣⓟ://tiny.cc/tokyohot" ◀◁◀ⓤⓡⓛ ⓒⓞⓟⓨ(NO Download!! No Mosaic!!)
140
torrent contents

Sold.2016.HDRip.XviD.AC3-EVO torrent

Sold.2016.HDRip.XviD.AC3-EVO
Sold.2016.HDRip.XviD.AC3-EVO.avi1.35 Gb torrent search
Sold.2016.HDRip.XviD.AC3-EVO.nfo658 bytes torrent search
Torrent Downloaded From ExtraTorrent.cc.txt338 bytes torrent search
sample.avi19 Mb torrent search

Sample info:
Duration: 01:34:30.79, start: 0.000000, bitrate: 2047 kb/s
Stream #0:0: Video: mpeg4 (Advanced Simple Profile) (XVID / 0x44495658), yuv420p, 720x304 [SAR 1:1 DAR 45:19], 1657 kb/s, 23.98 fps, 23.98 tbr, 23.98 tbn, 23.98 tbc
Stream #0:1: Audio: ac3 ([0] [0][0] / 0x2000), 48000 Hz, 5.1(side), fltp, 384 kb/s
screenshots
Images are auto generated please report any inapropriate images
 

related search cloud

 sold  xvid  hdrip  sample  extratorrent  torrent  downloaded