Torrent Search | Torrent Meta Search | Widgets

Queen of Katwe (2016) HDRip XviD ETRG

       
›
›
704.96 Mb
found 11 days ago
▲ seeders: 506 ▼ leechers:114
your vote:
real:
fake:
download torrent

Queen of Katwe (2016) HDRip XviD ETRG torrent

Information about the torrent Queen of Katwe (2016) HDRip XviD ETRG. Seeders, leechers and torrent status is updated everyday.

If you want to download the hdrip torrent Queen of Katwe (2016) HDRip XviD ETRG you will need a torrent client.

Torrent Metasearch.

Torrent verified by thepiratebay.se.

tracker
seeders
leechers
↓ torrent client compatible list

↑ hide torrent client compatible list

comments/reviews
anonymous 11 Jan 2017, 03:01:27
Free Porn Live show [1day Free] "ⓗⓣⓣⓟ://tiny.cc/tokyohot" ◀◁◀ⓤⓡⓛ ⓒⓞⓟⓨ(NO Download!! No Mosaic!!)
anonymous 11 Jan 2017, 08:01:20
Join This site. Thank Me later. Here:- bit.ly/2iEpscp
140
torrent contents

Queen.of.Katwe.2016.HDRip.XViD-ETRG torrent

Queen.of.Katwe.2016.HDRip.XViD-ETRG
ETRG.mp41.45 Mb torrent search
Queen of Katwe.nfo7.5 Kb torrent search
Queen.of.Katwe.2016.HDRip.XViD-ETRG.avi698.99 Mb torrent search
Queen.of.Katwe.2016.HDRip.XViD-ETRG.srt92.25 Kb torrent search
Torrent Downloaded From ExtraTorrent.cc.txt338 bytes torrent search
sample.avi4.43 Mb torrent search

Sample info:
Duration: 02:04:32.34, start: 0.000000, bitrate: 784 kb/s
Stream #0:0: Video: mpeg4 (Advanced Simple Profile) (XVID / 0x44495658), yuv420p, 640x272 [SAR 1:1 DAR 40:17], 679 kb/s, 23.98 fps, 23.98 tbr, 23.98 tbn, 23.98 tbc
Stream #0:1: Audio: mp3 (U[0][0][0] / 0x0055), 48000 Hz, stereo, s16p, 96 kb/s
screenshots
Images are auto generated please report any inapropriate images
 

related search cloud

 queen  etrg  katwe  hdrip  xvid  sample  extratorrent  torrent  downloaded