Torrent Search | Torrent Meta Search | Widgets

WWE Smackdown Live (2017) 01 10 HDTV x264 Ebi TJET

       
›
›
878.59 Mb
found 10 days ago
▲ seeders: 247 ▼ leechers:14
your vote:
real:
fake:
download torrent

WWE Smackdown Live (2017) 01 10 HDTV x264 Ebi TJET torrent

Information about the torrent WWE Smackdown Live (2017) 01 10 HDTV x264 Ebi TJET. Seeders, leechers and torrent status is updated several times per day.

If you want to download the tv torrent WWE Smackdown Live (2017) 01 10 HDTV x264 Ebi TJET you will need a torrent client.

Torrent Metasearch.

Torrent verified by thepiratebay.se.

tracker
seeders
leechers
↓ torrent client compatible list

↑ hide torrent client compatible list

comments/reviews
140
torrent contents

WWE Smackdown Live 2017 01 10 HDTV x264-Ebi [TJET] torrent

WWE Smackdown Live 2017 01 10 HDTV x264-Ebi [TJET]
WWE.Smackdown.Live.2017.01.10.HDTV.x264-Ebi.mp4878.59 Mb torrent search
Torrent Downloaded From ExtraTorrent.cc.txt378 bytes torrent search

Sample info:
Duration: 01:23:45.82, start: 0.000000, bitrate: 1466 kb/s
Stream #0:0	: Video: h264 (High) (avc1 / 0x31637661), yuv420p(tv, smpte170m/smpte170m/bt709), 712x400, 1299 kb/s, 29.97 fps, 29.97 tbr, 90k tbn, 59.94 tbc (default)
creation_time	: 2017-01-11 03:13:17
handler_name	: VideoHandler
Stream #0:1	: Audio: aac (LC) (mp4a / 0x6134706D), 48000 Hz, stereo, fltp, 160 kb/s (default)
creation_time	: 2017-01-11 03:13:17
handler_name	: Stereo
screenshots
Images are auto generated please report any inapropriate images
 

related search cloud

 smackdown  hdtv  live  extratorrent  downloaded  tjet  torrent