Torrent Search | Torrent Meta Search | Widgets

Surfs Up 2 WaveMania (2017) DVDRip XviD AC3 EVO

       
›
›
1.22 Gb
found 11 days ago
▲ seeders: 434 ▼ leechers:123
your vote:
real:
fake:
download torrent

Surfs Up 2 WaveMania (2017) DVDRip XviD AC3 EVO torrent

Information about the torrent Surfs Up 2 WaveMania (2017) DVDRip XviD AC3 EVO. Seeders, leechers and torrent status is updated everyday.

If you want to download the dvdrip torrent Surfs Up 2 WaveMania (2017) DVDRip XviD AC3 EVO you will need a torrent client.

Torrent Metasearch.

Torrent verified by thepiratebay.se.

tracker
seeders
leechers
↓ torrent client compatible list

↑ hide torrent client compatible list

comments/reviews
anonymous 13 Jan 2017, 02:01:59
There is a weird audio attached to this movie, you cant disable it. Its for the deaf.
anonymous 11 Jan 2017, 08:01:00
Join This site. Thank Me later. Here:- bit.ly/2iEpscp
140
torrent contents

Surfs.Up.2.WaveMania.2017.DVDRip.XviD.AC3-EVO torrent

Surfs.Up.2.WaveMania.2017.DVDRip.XviD.AC3-EVO
Surfs.Up.2.WaveMania.2017.DVDRip.XviD.AC3-EVO.avi1.2 Gb torrent search
Surfs.Up.2.WaveMania.2017.DVDRip.XviD.AC3-EVO.nfo789 bytes torrent search
Torrent Downloaded From ExtraTorrent.cc.txt338 bytes torrent search
sample.avi20.43 Mb torrent search

Sample info:
Duration: 01:24:01.58, start: 0.000000, bitrate: 2038 kb/s
Stream #0:0: Video: mpeg4 (Simple Profile) (XVID / 0x44495658), yuv420p, 720x400 [SAR 1:1 DAR 9:5], 1643 kb/s, 23.98 fps, 23.98 tbr, 23.98 tbn, 23.98 tbc
Stream #0:1: Audio: ac3 ([0] [0][0] / 0x2000), 48000 Hz, 5.1(side), fltp, 384 kb/s
screenshots
Images are auto generated please report any inapropriate images
 

related search cloud

 surfs  dvdrip  xvid  wavemania  sample  extratorrent  downloaded  torrent