Torrent Search | Torrent Meta Search | Widgets

Sherlock S04E02 WEBRip x264 FUM ettv

       
›
›
496.01 Mb
found 12 days ago
▲ seeders: 4528 ▼ leechers:518
your vote:
real:
fake:
download torrent

Sherlock S04E02 WEBRip x264 FUM ettv torrent

Information about the torrent Sherlock S04E02 WEBRip x264 FUM ettv. Seeders, leechers and torrent status is updated several times per day.

If you want to download the tv torrent Sherlock S04E02 WEBRip x264 FUM ettv you will need a torrent client.

Torrent Metasearch.

Torrent verified by thepiratebay.se.

tracker
seeders
leechers
↓ torrent client compatible list

↑ hide torrent client compatible list

comments/reviews
anonymous 16 Jan 2017, 11:01:44
Legit. Working fine for me
140
torrent contents

Sherlock.S04E02.WEBRip.x264-FUM[ettv] torrent

Sherlock.S04E02.WEBRip.x264-FUM[ettv]
Sherlock.S04E02.WEBRip.x264-FUM[ettv].mp4496.01 Mb torrent search
Torrent-Downloaded-from-ExtraTorrent.cc.txt289 bytes torrent search

Sample info:
Duration: 01:29:05.00, start: 0.000000, bitrate: 778 kb/s
Stream #0:0	: Video: h264 (High) (avc1 / 0x31637661), yuv420p(tv, bt709/unknown/unknown), 720x404 [SAR 1:1 DAR 180:101], 651 kb/s, 25 fps, 25 tbr, 25k tbn, 50 tbc (default)
creation_time	: 2017-01-09 07:49:45
Stream #0:1	: Audio: aac (LC) (mp4a / 0x6134706D), 48000 Hz, stereo, fltp, 122 kb/s (default)
creation_time	: 2017-01-09 07:03:00
screenshots
Images are auto generated please report any inapropriate images
 

related search cloud

 sherlock  ettv  webrip  extratorrent  torrent  downloaded